Bit Torrent Scene a public file sharing platform Home Upload Categories Collections Blog About

{NDS Movie} Richie Rich.DVDrip-Cradle

DOWNLOAD TORRENT

Posted on April 1, 2011 in Games » Nintendo DS , downloaded 742 times , verified torrent

Size: 281.65 MB , Seeds: 0 , Peers: 0 ( Updated October 31, 2014 - Refresh )

* Download via Magnet Link , * To download files you need a Bittorrent Client , * How to download torrents from Bit Torrent Scene?

advertising ( remove )

External Info

Trailer | Wikipedia | Other Info

Internal Files

{NDS Movie} Richie Rich.DVDrip-Cradle
Richie Rich.dvdrip.dpg   281.09 MB
cradle.nfo   4.15 KB
1337x.org   48 Byte

Hash Code

2b597b00fbe55469ffc723230498215b77451684

Description








-------------------------------

Complete name : {NDS Movie} Richie Rich.DVDrip-Cradle

Format : DPG

Format/Info : Nintendo DS

File size : 281 MiB

Duration : 1h 34mn

Overall bit rate : 416 Kbps



Video

Format : MPEG Video

Format version : Version 1

Format settings, BVOP : No

Format settings, Matrix : Default

Duration : 1s 667ms

Bit rate mode : Variable

Bit rate : 256 Kbps

Width : 256 pixels

Height : 192 pixels

Display aspect ratio : 4:3

Frame rate : 15.000 fps

Original frame rate : 23.976 fps

Color space : YUV

Bit depth : 8 bits

Scan type : Progressive

Compression mode : Lossy

Bits/(Pixel*Frame) : 0.347

Stream size : 173 MiB (62%)



Audio

Format : MPEG Audio

Format version : Version 1

Format profile : Layer 2

Duration : 1h 34mn

Bit rate mode : Constant

Bit rate : 160 Kbps

Channel(s) : 2 channels

Sampling rate : 32.0 KHz

Compression mode : Lossy

Stream size : 108 MiB (38%)

--------------------------------------------------------------------------------











NOTES:

Release Date··[ 26 May 1995 (UK)

IMDB Rating···[ 4.7/10

Genre·········[ Comedy | Family

LINK .........[ http://www.imdb.com/title/tt0110989/



Director:Donald Petrie

Writers:Neil Tolkin (story), Tom S. Parker (screenplay),

Stars:Macaulay Culkin, Edward Herrmann and John Larroquette

Language: English



The richest kid in the world, Richie Rich, has everything he wants, except companionship.

While representing his father at a factory opening



GREETS:

IMAGiNE,Noir,FLAWL3SS,ViSiON,FUSiON,Rx,SecretMyth,BirdFlu,ELEKTRI4KA,SERENiTY,and Autotron

And to all the other p2p grps past and present





THE MORE SEEDS MEANS MORE DS MOVIES RELEASES ! ! ! ! !



all my files are cleaned with




Scrape History ( seeds + peers )

Trackers

Refresh Leechers : Updated October 31, 2014

1. http://nemesis.1337x.org/announce

Comments

You must log in to add a comment.

Embed Code

Sharing Widget

Top Games ( auto generated report )

FILENAME SIZE SEEDS PEERS ADDED UPD
[i] Heroes of Might & Magic III - HD Edition [RUS] RePack by xatab 1.02 GB 2150 154 2 days 1 day
[i] Life Is Strange Episode 1-FLT 2.01 GB 2034 1610 1 day 23 hours
[i] Hyperdimension Neptunia Re;Birth1-RELOADED 5.19 GB 710 843 1 day 8 hours
[i] Fahrenheit Indigo Prophecy Remastered-CODEX 9.28 GB 318 864 2 days 1 day
[i] Heroes of Might and Magic 3 HD Edition-RELOADED 1.47 GB 265 52 2 days 1 day
[i] [RePack by SeregA-Lus] Heroes of Might & Magic 3_HD Edition 983.3 MB 253 16 2 days 1 day
[i] Call of Duty Advanced Warfare Digital Pro Edition (2014) PC Rip by R.G. Freedom 27.04 GB 233 928 2 days 1 day
[i] Life.Is.Strange.Repack-R.G.Mechanics 1.48 GB 220 160 12 hours 7 hours
[i] Far Cry 4 Hurk Deluxe Pack Addon-RELOADED 2.63 GB 153 164 3 days 2 days
[i] Ravens.Cry-CODEX 15.65 GB 148 1216 2 hours 2 hours