Bit Torrent Scene a public file sharing platform Home Upload Categories Collections Blog About

Marry Him If You Dare E06 HDTV XVID LIMO

DOWNLOAD TORRENT

Posted on October 30, 2013 in Series » Misc , downloaded 2 times , verified torrent

Size: 674.82 MB , Seeds: 0 , Peers: 2 ( Updated November 3, 2014 - Refresh )

* Download via Magnet Link , * To download files you need a Bittorrent Client , * How to download torrents from Bit Torrent Scene?

advertising ( remove )

External Info

Subtitles | Trailer | Wikipedia | Other Info

Internal Files

Marry.Him.If.You.Dare.E06.131029.HDTV.XviD-LIMO
Marry.Him.If.You.Dare.E06.131029.HDTV.XviD-LIMO.avi   674.49 MB
Marry.Him.If.You.Dare.E06.131029.HDTV.XviD-LIMO.srt   62.8 KB
ViSiT@@ AreaFiles.org.txt   404 Byte

Hash Code

f7a7aed6a5f51426eee8d748b59479b83b6b3c5c

Description

SCREENSHOT



Details



Title: 미래의 선택 / Mi Rae-ui Suntaek

Also known as: Mi Rae's Choice / Future's Choice / The Choice of the Future / The Future Choice

Genre: Romance, comedy, time travel, fantasy

Episodes: TBA

Broadcast network: KBS2

Broadcast period: 2013-Oct-14 to 2013-Dec-??

Air time: Monday & Tuesday 22:00

Subtitles English



Synopsis

32 years old for woman is an age which may be little too late to start something new or little too early to give up something. The 'future-self' comes to ‘me’ today and gives advices about life and marriage. The future-self is trying to bring better life by helping her to meet a perfect spouse.--KBS World

This drama will tell the story about a 57 years old woman named Na Mi Rae (Choi Myung Gil) from 2038, a television broadcast writer, travels back in time to meet her 32-year-old self (Yoon Eun Hye) from 2013 with the goal of preventing her marriage to Kim Shin (Lee Dong Gun) and thus send her past self down a different path in life.



Main Cast

Yoon Eun Hye as Na Mi Rae (32)

Choi Myung Gil as Na Mi Rae's future self (57)

Lee Dong Gun as Kim Shin (35)

Jung Yong Hwa as Park Se Joo (28)

Han Chae Ah as Seo Yoo Kyung (28)

People in Broadcasting Station

Oh Jung Se as Na Joo Hyun (35)

Lee Mi Do as Bae Hyun Ah (30)

Ahn Se Ha as Lee Jae Soo (32)

Go Doo Shim as Lee Mi Ran (65)



SCREENSHOT





Video

ID : 0

Format : MPEG-4 Visual

Format profile : Advanced Simple@L5

Format settings, BVOP : No

Format settings, QPel : No

Format settings, GMC : No warppoints

Format settings, Matrix : Default (MPEG)

Codec ID : XVID

Codec ID/Hint : XviD

Duration : 1h 6mn

Bit rate : 1 391 Kbps

Width : 624 pixels

Height : 352 pixels

Display aspect ratio : 16:9

Frame rate : 29.970 fps

Color space : YUV

Chroma subsampling : 4:2:0

Bit depth : 8 bits

Scan type : Progressive

Compression mode : Lossy

Bits/(Pixel*Frame) : 0.211

Stream size : 660 MiB (87%)

Writing library : XviD 1.2.1 (UTC 2008-12-04)



Audio

ID : 1

Format : MPEG Audio

Format version : Version 1

Format profile : Layer 3

Mode : Joint stereo

Mode extension : MS Stereo

Codec ID : 55

Codec ID/Hint : MP3

Duration : 1h 6mn

Bit rate mode : Constant

Bit rate : 128 Kbps

Channel(s) : 2 channels

Sampling rate : 48.0 KHz

Compression mode : Lossy

Stream size : 60.8 MiB (8%)

Alignment : Aligned on interleaves

Writing library : LAME3.98.2

Language : un

Torrent location

http://extratorrent.cc/torrent/3276580/Marry+Him+If+You+Dare+E06+HDTV+XVID+LIMO.html

Scrape History ( seeds + peers )

Trackers

Refresh Leechers : Updated November 3, 2014

1. http://94.228.192.98/announce

2. http://bigfoot1942.sektori.org:6969/announce

3. http://announce.torrentsmd.com:8080/announce

4. http://tracker.nwps.ws:6969/announce

5. udp://11.rarbg.me:80/announce

6. udp://open.demonii.com:1337/announce

7. udp://tracker.istole.it:80

8. udp://tracker.istole.it:80/announce

9. udp://9.rarbg.com:2710/announce

Comments

You must log in to add a comment.

Embed Code

Sharing Widget

Related torrents

FILENAME SIZE SEEDS PEERS ADDED UPD
[i] Marry Me 2014 S01E01 HDTV x264-LOL [eztv] 183.63 MB 221 13 1 month 3 weeks
[i] Marry Me 2014 S01E03 HDTV x264-LOL [eztv] 168.63 MB 220 9 1 month 2 weeks
[i] Marry Me 2014 S01E02 HDTV x264-LOL [eztv] 140.63 MB 205 7 1 month 3 weeks
[i] Marry Me 2014 S01E07 HDTV x264-LOL [eztv] 143.13 MB 192 6 2 weeks 2 days
[i] Bruno Mars - Marry You.mp3 3.58 MB 141 17 3 years 1 month
[i] Marry Me S01E04 HDTV x264-LOL [eztv] 176.63 MB 71 3 2 weeks 1 day
[i] Marry Me S01E01 HDTV x264-LOL[ettv] 183.32 MB 69 2 2 months 1 day
[i] Marry Me S01E03 HDTV x264-LOL[ettv] 168.32 MB 66 5 1 month 2 weeks
[i] Marry Me S01E08 HDTV XviD-FUM[ettv] 174.32 MB 60 5 1 week 3 days
[i] Marry Me 2014 S01E08 HDTV x264-LOL [eztv] 146.13 MB 60 5 1 week 2 days

Top Series ( auto generated report )

FILENAME SIZE SEEDS PEERS ADDED UPD
[i] Homeland S04E11 HDTV x264-KILLERS[ettv]
Series - Misc , Quality: Audio 9/10 - Video 9/10
331.07 MB 13041 3903 4 days 2 days
[i] The 100 S02E08 HDTV x264-LOL[ettv]
Series - Misc , Quality: Audio 9/10 - Video 9/10
350.07 MB 12717 2443 1 day 9 hours
[i] Person of Interest S04E10 HDTV x264-LOL[ettv]
Series - Misc , Quality: Audio 9/10 - Video 9/10
230.07 MB 9783 1454 2 days 1 day
[i] American Horror Story S04E10 HDTV x264-LOL[ettv]
Series - Misc , Quality: Audio 9/10 - Video 9/10
377.82 MB 9455 5022 1 day 7 hours
[i] [KoreanDrama] Superman Is Back E56 141214 HDTV H264 720p-WITH mp4 1.4 GB 7657 867 4 days 3 days
[i] Scorpion S01E12 HDTV x264-LOL[ettv]
Series - Misc , Quality: Audio 9/10 - Video 9/10
434.82 MB 7414 1268 3 days 2 days
[i] Once Upon a Time S04E12 HDTV x264-LOL[ettv]
Series - Misc , Quality: Audio 9/10 - Video 9/10
270.07 MB 7369 2046 4 days 3 days
[i] Brooklyn Nine-Nine S02E11 HDTV x264-KILLERS [eztv]
Series - Misc , Quality: Audio 9/10 - Video 9/10
171.13 MB 5398 536 3 days 3 days
[i] Ascension Part 1 HDTV x264-FUM[ettv]
Series - Misc , Quality: Audio 9/10 - Video 9/10
462.32 MB 5018 1126 3 days 2 days
[i] Ascension Part 3 HDTV x264-SYS[ettv] 721.57 MB 4883 1438 1 day 8 hours