Bit Torrent Scene a public file sharing platform Home Upload Categories Collections Blog About

Desi Girl Homemade xXx Hindi Scandal With BF@Mastitorrents

DOWNLOAD TORRENT

Posted on June 22, 2010 in Misc » Others , downloaded 213 times

Size: 30.45 MB , Seeds: 1 , Peers: 0 ( Updated October 5, 2014 - Refresh )

* Download via Magnet Link , * To download files you need a Bittorrent Client , * How to download torrents from Bit Torrent Scene?

advertising ( remove )

External Info

Trailer | Wikipedia | Other Info

Internal Files

desigirll
desigirl.avi   30.16 MB
desigirl.avi_thumbs_[2010.06.22_07.45.23].jpg   276.96 KB

Hash Code

99ed12d24f21a7ab46b48dc6009972507c8212dd

Description


mastitorrents.com
http://mastitorrents.com/forums/index.php


General

Format : AVI
Format/Info : Audio Video Interleave
File size : 30.2 MiB
Duration : 7mn 7s
Overall bit rate : 591 Kbps
Writing application : Lavf52.13.0

Video
Format : S-Mpeg 4 v2
Codec ID : MP42
Codec ID/Info : Microsoft MPEG-4 V2
Duration : 7mn 7s
Bit rate : 482 Kbps
Width : 176 pixels
Height : 144 pixels
Display aspect ratio : 1.222
Frame rate : 29.970 fps
Resolution : 24 bits
Bits/(Pixel*Frame) : 0.635
Stream size : 24.6 MiB (81%)

Audio
ID : 1
Format : MPEG Audio
Format version : Version 1
Format profile : Layer 3
Format_Settings_Mode : Joint stereo / MS Stereo
Codec ID : 55
Codec ID/Hint : MP3
Duration : 7mn 7s
Bit rate mode : Constant
Bit rate : 96.0 Kbps
Channel(s) : 2 channels
Sampling rate : 44.1 KHz
Resolution : 16 bits
Stream size : 4.90 MiB (16%)
Alignment : Aligned on interleaves
Interleave, duration : 26 ms (0.78 video frame)

Scrape History ( seeds + peers )

Trackers

Refresh Leechers : Updated October 5, 2014

1. http://tracker.thepiratebay.org/announce

2. udp://tracker.thepiratebay.org:80/announce

3. http://www.mastitorrents.com:30303/000058c9a8c15b5bb64a07c807ba0aa5/announce

4. http://tracker.istole.it:80/announce

5. http://11.rarbg.com:80/announce

6. http://10.rarbg.com:80/announce

7. http://photodiode.mine.nu/announce

8. http://pow7.com:80/announce

9. udp://denis.stalker.h3q.com:6969/announce

10. http://denis.stalker.h3q.com:6969/announce

11. http://tracker.publicbt.com/announce

12. udp://tracker.publicbt.com:80/announce

13. udp://tracker.openbittorrent.com:80/announce

14. http://tracker.openbittorrent.com/announce

Comments

You must log in to add a comment.

Embed Code

Sharing Widget

Related torrents

FILENAME SIZE SEEDS PEERS ADDED UPD
[i] Desi Bengali Beautiful Girl fucked by Her Boyfriend 1st.time-30min.Homemade full Video 189.57 MB 1063 758 1 day 11 hours
[i] Beautiful Indian Desi Girl Fucked In Bathroom & More Hot Recent Homemade Scandals-Runtime 27 Min 170.41 MB 12 2 6 months 1 month
[i] *NEW* Desi Skinny College Virgin Girl Cries in Pain while Inserting Dick - Homemade Scandal 15min =XXX-BaBa= 113.29 MB 11 4 6 months 4 weeks
[i] Indian Desi Girl Fucked In Car And Married Couple Homemade Sex Tape Leaked With Audio (39 Min) 284.65 MB 8 2 12 months 6 months
[i] DESI XXX - Desi Young 3 Guys with 1 Girl Homemade video NEW OCTOBER 4th, 2014 [VPSR].mp4 106.41 MB 6 8 2 months 1 week
[i] Homemade.Amateur.British.Girl.Fucked.by.Desi.Guy 103.81 MB 4 1 12 months 6 months
[i] Indian Desi - Indian Shy Girl Fucked Homemade In Tamil 119.91 MB 3 0 1 year 3 months
[i] Indian Desi College Girl Full Scandal + Desi Girl Enjoing With Her Friends in Hotel-Homemade Full Video 138.41 MB 3 0 6 months 4 weeks
[i] Very Sexy Desi Teen Girl Like Hard Homemade Fuck 357.15 MB 2 0 1 year 5 months
[i] Sexy Desi Teen Girl Like Hard Homemade Fuck.avi 356.82 MB 2 1 1 year 5 months

Top Misc ( auto generated report )

FILENAME SIZE SEEDS PEERS ADDED UPD
[i] Lynda - Improving Your Memory 591.57 MB 218 131 4 days 3 days
[i] 30 Christmas and New Year Best HD Wallpapers { SET- 9 } 49.27 MB 99 6 5 days 4 days
[i] HD Wallpaper Pack [108] [Exclusive]--[CooL GuY] {{a2zRG}} 103.24 MB 70 19 4 days 3 days
[i] 30 Christmas and New Year Best HD Wallpapers { SET- 11 } 33.08 MB 66 5 2 days 1 day
[i] INE - Networking Fundamentals Network Communication Level 1 1.66 GB 65 100 4 days 3 days
[i] Udemy - Learn PHP Programming From Scratch 4.09 GB 64 115 2 days 1 day
[i] Udemy - Web Development Master Collection Build 14 Projects from Scratch 1.92 GB 60 139 4 days 3 days
[i] Udemy - How I Make $2000 A Month On YouTube - And No Filming 1.03 GB 51 50 4 days 3 days
[i] 40 Amazing Aircraft HD Wallpapers 1920x1080 - 2560x1600 Px [Set 21] 88.41 MB 49 13 1 day 12 hours
[i] Microsoft Networking Fundamentals 1.73 GB 46 139 10 hours 8 hours